首页>>欧美电影>>[勇闯16街区].16.Blocks.2006.Bluray.720p.x264.AC3[中英字幕/2.05G]

基本信息

发布时间:2010-05-01 02:26

更新时间:2017-07-16 21:07

大小:2.05G

上传:0

下载:0

完成:1690

速度:

BT种子下载

磁力下载

资源标题

[勇闯16街区].16.Blocks.2006.Bluray.720p.x264.AC3[中英字幕/2.05G]

文件信息

-=瀛楀箷缁勬嫑鍕熻创(闀挎湡鏈夋晥)=-.doc (134K)

[鍕囬棷16琛楀尯].16.Blocks.2006.Bluray.720p.x264.AC3-CMCT.jpg (156.78K)

[鍕囬棷16琛楀尯].16.Blocks.2006.Bluray.720p.x264.AC3-CMCT.mkv (2.05G)

(206B)

鍕囬棷16琛楀尯.txt (11.42K)

(174B)

锝淕y99.Org锝滃厜褰变箙涔咃綔閭垫皬缁忓吀锝滅粡鍏稿墽闆嗭綔.url (116B)

内容介绍

先祝大家5.1节快乐...
喜欢国语的童鞋可去音轨区:http://www.cnscg.com/viewthread.php?tid=668254&highlight=16%BD%D6%C7%F8  下载国语音轨[/b]
[size=3]MD5值: F0913D69FEB5541DE49E06D96F3ED56A

※※※※※※※ 影片信息 ※※※※※※※
◎译  名 勇闯16街区/16条街区/狙击封锁线/冲击封锁线
◎片  名 16 Blocks
◎年  代 2006
◎国  家 美国/德国
◎类  别 动作/犯罪/剧情/惊悚
◎语  言 英语
◎字  幕 中英字幕
◎IMDB评分 6.7/10 (38,988 votes)
◎IMDB链接 /title/tt0450232
◎文件格式 X264 + AC3
◎视频尺寸 1280 x 720
◎文件大小 1CD
◎片  长 98 Mins
◎导  演 理查德•唐纳 Richard Donner
◎主  演 布鲁斯•威利斯 Bruce Willis .....Jack Mosley
      茅斯•达夫 Mos Def .....Eddie Bunker
      大卫•摩斯 David Morse .....Frank Nugent
      Jenna Stern .....Diane Mosley
      David Zayas .....Robert Torres
      Robert Racki .....Jerry Shue
      Sasha Roiz .....Kaller
      Conrad Pla .....Ortiz
      Robert Clohessy .....Cannova
      Tig Fong .....Briggs
※※※※※※※ 资料信息 ※※※※※※※
◎简  介 
  纽约警察局里一如既往的忙碌着,老干探杰克•莫斯利(布鲁斯•威利斯)虽当年勇猛过人尽破些要紧的大案,可如今日渐衰老的他却勇猛不敢当年。但“姜还是老的辣!”虽身手打斗大不如前,但机警过人、经验老道的他却总能化险为夷,依然可以在很多重要案件上发挥着巨大的作用。眼前,便有一件10非常棘手的案件发生,一个名叫埃迪•班克(莫斯•戴夫)的黑人小子无意间看到了一起罪恶事件的发生,从而成为这起案件的重要目击证人。如今更是成了匪首党羽们竞相追杀的目标。因此,警方决定由资历深厚的老警探杰克•莫斯利来负责在开庭那天将目击证人从警局的看守所护送到相距16个街区之远的法庭现场。
  而此时闻风而来的黑社会党羽们早已是蠢蠢欲动,这伙亡命之徒正是想利用这漫长而短暂的16个街区之路程来劫持并干掉证人埃迪,从而帮助他们的老大在法庭上因罪证不足而逃脱法律的制裁。而“黑证人”埃迪•班克却是个天生调皮喜欢无事打屁且乐观开朗的小子。性格不羁的他对穿制服的人也是从来都没有什么好感可言,对眼前的这位古板的老警察亦是百般的不合作。相反,老警探杰克对这位给他带来麻烦不断的黑人小子更是反感异常,但是出于对职业的尽心尽责,杰克还是拼尽全力与活力强劲的众匪徒们展开周折和惊险的斗智斗勇。而埃迪则似乎一点也没意识到将要面临怎样的险恶情境。在复杂而纷繁、不大不小的十六个街区之内,一场证人争夺战,或者说是一次亡命大逃杀就这样轰轰烈烈地开始了……
一句话评论
For a New York cop and his witness, the distance between life and death just got very short.
1 Witness... 118 Minutes...
作为一部传统警匪片,影片用歧途中的人物来充实内涵。——《综艺》 
影片的人物设计蛮有70年代特色。——《洛杉矶时报》
 
少说多做,这部激活肾上腺素分泌的作品对这种类型片可谓提纲挈领。——《纽约时报》
 
本片应该属于导演理查德•唐纳的佳作之一。——《洛杉矶周刊》

幕后制作
  本片导演理查德•唐纳在过去20年间拍摄了很多脍炙人口的佳作,他在1975年执导的第一部《凶兆》创造了当年的票房纪录,影史经典《超人》也是他的杰作,后来理查德•唐纳又执导了《致命武器》系列,全美累积票房高达4亿8千多万。
  本片于2005年4月开拍,在多伦多拍摄9周,接着到曼哈顿拍摄2周。影片按照时间顺序拍摄,于是为了保持紧凑,影片中很少使用切出镜头(cut-away)或间歇性拍摄法(time lapse)处理,所以片中故事都是分秒必争,连贯性突出,可看性十足。
  摄影导演格伦让影片的影像风格犹如纪录片,在紧张的叙事中体现出真实感,因为导演希望观众感觉身临其境,所以他的职责就是不要将画面拍得太美,必须有粗糙质感,同时他认为这部电影的最大挑战,就是如何把在两个城市55天各种天气下拍摄的镜头浓缩在两小时之内。倘若拍摄当天乌云密布,格伦就用120英尺高的Dwight吊臂,再加上6个各有12000瓦的HMI灯泡(这些灯泡非常强效,可以照亮40英尺外的白纸,或是将小型车的门照到变形),40英尺见方的悬挂黑幕则负责制造阴影。另外,格伦在片中经常动用多部摄影机拍摄同一场景,他甚至架设12部摄影机拍摄巴士撞毁的画面,以便提供更多有效画面,增加刺激感与真实感。
  片中曾出现发生在巴士上的大型动作戏,《活死人黎明》和《后天》的特技协调人布兰科设计了巴士上复杂的高潮段落。这段镜头在多伦多用 12天拍摄完成,使用了46个特技演员和25辆汽车,其中包括特地从纽约购买的5部MTA (Metro Transport Authority)巴士,这5部巴士用来拍摄不同画面,其中两部保持原样的巴士分别用于拍摄外景与内景;一部用来拍摄特效画面,例如窗户爆破;一部用来冲撞,所以必须经过特别加固,以免散架;最后一部被切割成两半以适应小巷中的发卡弯。
  布鲁斯•威利斯在本片里扮演的角色,和先前饰演的动作角色形象截然不同,他身有残疾又酗酒多年,身材走样、体能糟糕且颓废消沉,为了演活这个角色,化妆师为他在额头加上长期酗酒和早衰的特征,暴露的青筋、蛛网状静脉和昏红的肤色。布鲁斯•威利斯主动要求为角色加上小胡子,还请人在英格兰订作了一套花白的高发际假发。化妆师将薄荷醇蒸气吹到布鲁斯•威利斯的眼部,以营造眼球布满血丝和经常流泪的效果,当然,这还不是为扮演角色忍受的唯一折磨,他还要在右脚鞋子里放个小石头以模拟跛脚的效果。
  为了达到导演要求的真实感,剧组特别聘请了具有22年工作经验的前纽约警察局探员迈克•基南(Mike Keenan)担任技术顾问,在拍摄过程中他指导250名饰演SWAT特警的演员完成众多高度仿真的细节场面,同时还要修订设计警方相关程序、制服、武器、道具、车辆以及对话的细节。
花絮
布鲁斯•威利斯最初曾打算让卢达•克里斯扮演艾迪。
警察使用的枪型为9mmBlock 19。
片中人物使用的手机多为摩托罗拉的i670。
※※※※※※※ 参数信息 ※※※※※※※
F:\待发\勇闯16街区.中英字幕£圣城风铃\[勇闯16街区].16.Blocks.2006.Bluray.720p.x264.AC3-CMCT.mkv
   General
      Complete name : F:\待发\勇闯16街区.中英字幕£圣城风铃\[勇闯16街区].16.Blocks.2006.Bluray.720p.x264.AC3-CMCT.mkv
      Format : Matroska
      File size : 2.05 GiB
      Duration : 1h 37mn
      Overall bit rate : 3 010 Kbps
      Encoded date : UTC 2010-04-30 01:58:19
      Writing application : mkvmerge v3.2.0 ('Beginnings') 编译于 Feb 12 2010 16:46:17
      Writing library : libebml v0.7.9 + libmatroska v0.8.1
   Video #1
      ID : 1
      Format : AVC
      Format/Info : Advanced Video Codec
      Format profile : High@L4.1
      Format settings, CABAC : Yes
      Format settings, ReFrames : 4 frames
      Muxing mode : Container profile=Unknown@4.1
      Codec ID : V_MPEG4/ISO/AVC
      Duration : 1h 37mn
      Bit rate : 2 502 Kbps
      Nominal bit rate : 2 563 Kbps
      Width : 1 280 pixels
      Height : 720 pixels
      Display aspect ratio : 16:9
      Frame rate : 25.000 fps
      Resolution : 8 bits
      Colorimetry : 4:2:0
      Scan type : Progressive
      Bits/(Pixel*Frame) : 0.109
      Stream size : 1.70 GiB (83%)
      Writing library : x264 core 80 r1376M 3feaec2
      Encoding settings : cabac=1 / ref=4 / deblock=1:-1:-1 / analyse=0x3:0x113 / me=umh / subme=7 / psy=1 / psy_rd=1.0:0.0 / mixed_ref=1 / me_range=16 / chroma_me=1 / trellis=2 / 8x8dct=1 / cqm=0 / deadzone=21,11 / fast_pskip=1 / chroma_qp_offset=-2 / threads=3 / sliced_threads=0 / nr=0 / decimate=1 / mbaff=0 / constrained_intra=0 / bframes=3 / b_pyramid=0 / b_adapt=2 / b_bias=0 / direct=3 / wpredb=1 / wpredp=2 / keyint=250 / keyint_min=25 / scenecut=40 / rc_lookahead=40 / rc=2pass / mbtree=1 / bitrate=2563 / ratetol=1.0 / qcomp=0.60 / qpmin=10 / qpmax=51 / qpstep=4 / cplxblur=20.0 / qblur=0.5 / vbv_maxrate=50000 / vbv_bufsize=50000 / ip_ratio=1.40 / aq=1:1.00
   Audio #2
      ID : 2
      Format : AC-3
      Format/Info : Audio Coding 3
      Codec ID : A_AC3
      Duration : 1h 37mn
      Bit rate mode : Constant
      Bit rate : 448 Kbps
      Channel(s) : 6 channels
      Channel positions : Front: L C R, Surround: L R, LFE
      Sampling rate : 48.0 KHz
      Stream size : 312 MiB (15%)
      Language : English
   Text #3
      ID : 3
      Format : ASS
      Codec ID : S_TEXT/ASS
      Codec ID/Info : Advanced Sub Station Alpha
      Title : 英上中下
   Text #4
      ID : 4
      Format : ASS
      Codec ID : S_TEXT/ASS
      Codec ID/Info : Advanced Sub Station Alpha
      Title : 中上英下
   Text #5
      ID : 5
      Format : ASS
      Codec ID : S_TEXT/ASS
      Codec ID/Info : Advanced Sub Station Alpha
      Title : 英文字幕
   Text #6
      ID : 6
      Format : UTF-8
      Codec ID : S_TEXT/UTF8
      Codec ID/Info : UTF-8 Plain Text
      Title : 中文字幕
   Text #7
      ID : 7
      Format : UTF-8
      Codec ID : S_TEXT/UTF8
      Codec ID/Info : UTF-8 Plain Text
      Title : 中英字幕
※※※※※※※ 截图信息 ※※※※※※※

[hide][attach]462182[/attach][/hide]
[hide]magnet:?xt=urn:btih:BUPLVEFVQD4BTTFZLXTMYFCOMPXWGKU4[/hide]

推荐